Dream Girl 2019 torrent

===================================================================

General

Complete name : Dream Girl 2019 Hindi 720p Pre-DVD Rip x264 AAC { TaRa }.mkv

Format : Matroska

Format version : Version 4

File size : GiB

Duration : 2 h 2 min

Overall bit rate : 1 403 kb/s

===================================================================

Video

ID : 1

Format : AVC

Format/Info : Advanced Video Codec

Format profile :

Format settings : CABAC / 4 Ref Frames

Format settings, CABAC : Yes

Format settings, Reference : 4 frames

Codec ID : V_MPEG4/ISO/AVC

Duration : 2 h 2 min

Bit rate : 1 284 kb/s

Width : 1 280 pixels

Height : 544 pixels

Display aspect ratio : :1

Frame rate mode : Constant

Frame rate : (30000/1001) FPS

Color space : YUV

Chroma subsampling : 4:2:0

Bit depth : 8 bits

Scan type : Progressive

Bits/(Pixel*Frame) :

Stream size : GiB (92%)

Title : …..::::: TaRa :::::…..

Language : Hindi

Default : Yes

Forced : No

===================================================================

Audio

ID : 2

Format : AAC LC

Format/Info : Advanced Audio Codec Low Complexity

Codec ID : A_AAC-2

Duration : 2 h 2 min

Bit rate : 109 kb/s

Channel(s) : 2 channels

Channel layout : L R

Sampling rate : kHz

Frame rate : FPS (1024 SPF)

Compression mode : Lossy

Delay relative to video : -10 ms

Stream size : MiB (8%)

Title : …..::::: TaRa :::::…..

Language : Hindi

Default : Yes

Forced : No

===================================================================