Chhichhore 2019 Hindi avi full torrent download

================================================== === = ================

General

Full name: Chhichhore 2019 Hindi 720p Rip Pre-DVD x264 AAC {TaRa} .mkv

Format: Matroska

Format version: version 4

File Size: Gio

Duration: 2 hours 18 min

Total bit rate: 1158 kb / s

================================================== === = ==================

Video

ID: 1

Format: AVC

Format / Information: Advanced video codec

Format profile:

Format parameters: CABAC / 4 Ref frames

Format settings, CABAC: Yes

Format settings, reference: 4 frames

Codec ID: V_MPEG4 / ISO / AVC

Duration: 2 hours 18 min

Bit rate: 1000 kb / s

Width: 1280 pixels

Height: 544 pixels

Screen ratio: 1

Frame rate mode: constant

Frame rate: (23976/1000) FPS

Color space: YUV

Chromatic downsampling: 4: 2: 0

Bit depth: 8 pcs

Scan type: progressive

Bits / (Pixel Frame *):

Stream size: 988 MiB (86%)

Title: ….. ::::: TaRa ::::: …..

Writing library: x264 core 132

Language: Hindi

Default: Yes

Mandatory: No.

================================================== === = ==================

Sound

ID: 2

Format: AAC LC

Format / Info: Advanced audio codec with low complexity

Codec ID: A_AAC-2

Duration: 2 hours 18 min

Bit rate: 158 kb / s

Channel (s): 2 channels

Channel format: L R.

Sampling rate: kHz

Frame rate: FPS (1024 SPF)

Compression mode: loss

Video delay: -84 ms

Stream size: 156 MiB (14%)

Title: ….. ::::: TaRa ::::: …..

Language: Hindi

Default: Yes

Mandatory: No.

================================================== === = ==================